Торрент новинки
28-11Завтрак у папы (2016)
28-11Поп-звезда: Не переставай, не останавливайся (2016)
28-11Одноклассницы (2016)


Бегущий в лабиринте: Испытание огнём 2015 скачать торрент

Скачал сам?! Дай скачать другим, не уходи с раздачи!!!
Бегущий в лабиринте: Испытание огнём 2015


Год выпуска: 2015
Производство: США / 20th Century Fox, Gotham Group, Temple Hill Entertainment, TSG Entertainment
Жанр: Фантастика, боевик, триллер

Режиссер: Уэс Болл
Продюсеры: Марти Бауэн, Вик Годфри, Эллен Голдсмит-Вейн
Актеры: Дилан О'Брайен, Кая Скоделарио, Ки Хонг Ли, Томас Сэнгстер, Декстер Дарден, Алекс Дж. Флорес, Джейкоб Лофленд, Роза Салазар, Джанкарло Эспозито, Патришия Кларксон

Описание фильма:
Каким бы не казался сложным лабиринт - он пройден. Какое количество сложнейших испытианий предстояло пройти героям, но они справились и с этой задачей. Но еще не время расслабляться, ведь готовятся новые гонки, не на жизнь, а на смерть.
В этот раз тайная организация решила, что ребята должны бороться с жарой и жаждой, преодолевая пустыню. Но и этого им показалось мало, герои не раз встретят на своем пути несчастных людей, которые страдают от страшнейших смертельных заболеваний. Чего ожидать от таких больных неизвестно. Справятся ли герои с такой задачей? И какую цену придется заплатить за победу в очередных гонках?

Перевод: Дублированный
Субтитры: Английские, русские

Дата мировой премьеры: 1 сентября 2015
Дата премьеры в России: 17 сентября 2015, «Двадцатый Век Фокс СНГ»

Продолжительность: 02:11:35
Качество видео: DVD5

Видео: MPEG-2, 720x480@853x480 (NTSC 16:9), ~4000 Кбит/сек
Аудио 1: AC3 5.1, 448 Кбит/сек [Английский - оригинал]
Аудио 2: AC3 5.1, 448 Кбит/сек [Русский - дублированный]



Видео
Идентификатор : 224 (0xE0)
Формат : MPEG Video
Версия формата : Version 2
Профиль формата : Main@Main
Параметр BVOP формата : Да
Параметр матрицы формата : Выборочная
Параметр GOP формата : Variable
Продолжительность : 28 м.
Вид битрейта : Переменный
Битрейт : 4063 Кбит/сек
Максимальный битрейт : 7725 Кбит/сек
Ширина : 720 пикселей
Высота : 480 пикселей
Соотношение сторон : 16:9
Частота кадров : 23,976 кадра/сек
Стандарт вещания : NTSC
Цветовое пространство : YUV
Субдискретизация насыщенности : 4:2:0
Битовая глубина : 8 бит
Тип развёртки : Прогрессивная
Порядок развёртки : 2:3 Pulldown
Метод сжатия : С потерями
Бит/(Пиксели*Кадры) : 0.490
Временной код первого кадра : 00:31:51:07
Оригинал временного кода : Group of pictures header
GOP, открыто/закрыто : Открыто
Размер потока : 822 Мбайт (80%)

Аудио #1
Идентификатор : 189 (0xBD)-128 (0x80)
Формат : AC-3
Формат/Информация : Audio Coding 3
Расширение режима : CM (complete main)
Параметр Endianness формата : Big
Режим смешивания : DVD-Video
Продолжительность : 28 м.
Вид битрейта : Постоянный
Битрейт : 448 Кбит/сек
Каналы : 6 каналов
Расположение каналов : Front: L C R, Side: L R, LFE
Частота : 48,0 КГц
Битовая глубина : 16 бит
Метод сжатия : С потерями
Задержка видео : -524 мс.
Размер потока : 90,7 Мбайт (9%)

Аудио #2
Идентификатор : 189 (0xBD)-129 (0x81)
Формат : AC-3
Формат/Информация : Audio Coding 3
Расширение режима : CM (complete main)
Параметр Endianness формата : Big
Режим смешивания : DVD-Video
Продолжительность : 28 м.
Вид битрейта : Постоянный
Битрейт : 448 Кбит/сек
Каналы : 6 каналов
Расположение каналов : Front: L C R, Side: L R, LFE
Частота : 48,0 КГц
Битовая глубина : 16 бит
Метод сжатия : С потерями
Задержка видео : -524 мс.
Размер потока : 90,7 Мбайт (9%)

Текст #1
Идентификатор : 189 (0xBD)-32 (0x20)
Формат : RLE
Формат/Информация : Run-length encoding
Режим смешивания : DVD-Video
Продолжительность : 28 м.
Задержка видео : 4 с. 587 мс.

Текст #2
Идентификатор : 189 (0xBD)-33 (0x21)
Формат : RLE
Формат/Информация : Run-length encoding
Режим смешивания : DVD-Video
Продолжительность : 28 м.
Задержка видео : 3 с. 987 мс.



Скриншоты:
Бегущий в лабиринте: Испытание огнём 2015Бегущий в лабиринте: Испытание огнём 2015Бегущий в лабиринте: Испытание огнём 2015Бегущий в лабиринте: Испытание огнём 2015Бегущий в лабиринте: Испытание огнём 2015
Поиск торрент раздач, пожалуйста подождите!

Оценка
Категория фильмы / приключения
Обновлен 26-12-2015 22:27
Загрузил amouR

Связанные раздачи     
Добавлен Название
18-12-2015, 23:07 Люди Икс: Апокалипсис (2016) 1080p
18-12-2015, 22:13 Варкрафт (2016) DCPRip | Трейлер
18-12-2015, 21:27 Эверест (2015) HDRip
16-12-2015, 07:17 Герои меча и магии 7 / Might and Magic Heroes7 (2015) PC
16-12-2015, 06:32 Темный лес 2
Не забудьте оставить комментарий!

Комментарий:
  • winkwinkedsmileam
    belayfeelfellowlaughing
    lollovenorecourse
    requestsadtonguewassat
    cryingwhatbullyangry
Введите код: *
Кликните на изображение чтобы обновить код, если он неразборчив